Robyn (Robin Miriam Carlsson) • Live in Stockholm 2010 [2011, Electropop, HDTV, 720p]

Страницы:  1
Ответить
Автор
Сообщение

meloman67

Moderator

Стаж: 10 лет 4 месяца

Сообщений: 6304

meloman67 · 24-Мар-18 06:14 (1 год 4 месяца назад, ред. 02-Апр-18 14:21)

Robyn
Live in Stockholm 2010


Жанр: Electropop
Продолжительность: 00:56:38
Год выпуска: 2011
Качество: HDTV
Разрешение видео/развертка: 720p
Контейнер: TS
Видео кодек: H.264
Аудио кодек: AC3, MP2
Видео: MPEG4 Video (H264) 1280x720 50fps 11.5 Mb/s
Аудио 1: MPEG Audio 48000Hz stereo 256kbps
Аудио 2: Dolby AC3 48000Hz stereo 448kbps
Треклист
01. Fembot
02. Dancing on my own
03. We dance to the beat
04. Don't fucking tell me what to do
05. The girl & the robot
06. Indestructible
07. With every heartbeat
08. U should know better
09. Cobrastyle
10. Dancehall queen
11. Be mine
12. Hang with me
13. Dancing queen (ABBA cover)=> Show Me Love
Отчёт MediaInfo / BDInfo
General
ID : 1 (0x1)
Complete name : F:\Robyn - Live in Stockholm 2010.ts
Format : MPEG-TS
File size : 5.07 GiB
Duration : 56 min 37 s
Overall bit rate mode : Variable
Overall bit rate : 12.8 Mb/s
Video
ID : 512 (0x200)
Menu ID : 1 (0x1)
Format : AVC
Format/Info : Advanced Video Codec
Format profile : [email protected]
Format settings, CABAC : Yes
Format settings, RefFrames : 6 frames
Format settings, GOP : M=4, N=32
Codec ID : 27
Duration : 56 min 37 s
Bit rate : 11.5 Mb/s
Width : 1 280 pixels
Height : 720 pixels
Display aspect ratio : 16:9
Frame rate : 50.000 FPS
Color space : YUV
Chroma subsampling : 4:2:0
Bit depth : 8 bits
Scan type : Progressive
Bits/(Pixel*Frame) : 0.249
Stream size : 4.54 GiB (90%)
Color range : Limited
Color primaries : BT.709
Transfer characteristics : BT.709
Matrix coefficients : BT.709
Audio #1
ID : 640 (0x280)
Menu ID : 1 (0x1)
Format : MPEG Audio
Format version : Version 1
Format profile : Layer 2
Codec ID : 3
Duration : 56 min 37 s
Bit rate mode : Constant
Bit rate : 256 kb/s
Channel(s) : 2 channels
Sampling rate : 48.0 kHz
Compression mode : Lossy
Delay relative to video : -20 ms
Stream size : 104 MiB (2%)
Language : Swedish
Audio #2
ID : 641 (0x281)
Menu ID : 1 (0x1)
Format : AC-3
Format/Info : Audio Coding 3
Format settings, Endianness : Big
Codec ID : 6
Duration : 56 min 37 s
Bit rate mode : Constant
Bit rate : 448 kb/s
Channel(s) : 2 channels
Channel positions : Front: L R
Sampling rate : 48.0 kHz
Frame rate : 31.250 FPS (1536 SPF)
Bit depth : 16 bits
Compression mode : Lossy
Delay relative to video : -20 ms
Stream size : 181 MiB (3%)
Language : Swedish
Service kind : Complete Main
Download
Сайт не распространяет и не хранит электронные версии произведений, а лишь предоставляет доступ к создаваемому пользователями каталогу ссылок на торрент-файлы, которые содержат только списки хеш-сумм
Как скачивать? (для скачивания .torrent файлов необходима регистрация)
[Профиль]  [ЛС] 

fvvn

Стаж: 9 лет 3 месяца

Сообщений: 82

fvvn · 02-Апр-18 12:19 (спустя 9 дней)

Звук плох. Рассинхрон. Скорость плавает... Ипортило всё впечатление о концерте. Хотя Robin хороша.
[Профиль]  [ЛС] 

meloman67

Moderator

Стаж: 10 лет 4 месяца

Сообщений: 6304

meloman67 · 03-Апр-18 05:14 (спустя 16 часов, ред. 03-Апр-18 05:14)

fvvn писал(а):
75102146Звук плох. Рассинхрон. Скорость плавает...
пруфы пожалуйста!
Установите соответствующий софт, железо, обновите кодеки, ищите проблему у себя!
[Профиль]  [ЛС] 

fvvn

Стаж: 9 лет 3 месяца

Сообщений: 82

fvvn · 03-Апр-18 13:54 (спустя 8 часов)

meloman67 писал(а):
75102701
fvvn писал(а):
75102146Звук плох. Рассинхрон. Скорость плавает...
пруфы пожалуйста!
Установите соответствующий софт, железо, обновите кодеки, ищите проблему у себя!
Медиаплеер ICONBIT 7. Всеяден и надёжен. Попробую ещё на одном медиаплеере.
[Профиль]  [ЛС] 

fvvn

Стаж: 9 лет 3 месяца

Сообщений: 82

fvvn · 23-Апр-18 11:27 (спустя 19 дней)

Я проверил на другом плеере. Звук рассинхрон. Так что материал дефектный.
[Профиль]  [ЛС] 
 
Ответить
Loading...
Error