Discovery: В дебрях Индии / Wildest India (Ричард Кирби / Richard Kirby) / 3 серии из 5 [2011, Документальный, познавательный, HDTV 1080i]

Страницы:  1
Ответить
Автор
Сообщение

san007

Стаж: 10 лет 10 месяцев

Сообщений: 699

san007 · 07-Янв-17 20:43 (2 года 7 месяцев назад, ред. 22-Окт-18 02:25)

В дебрях ИндииWildest India

Год выпуска: 2011
Страна: Великобритания, США
Производство: Off The Fence, ZTF/ARTE, Oasis HD
Жанр: Документальный, познавательный, природа Индии
Режиссёр: Ричард Кирби (Richard Kirby)
Продолжительность: 3 x ~00:44:00
Перевод: Студийный (одноголосый закадровый) [Студия АРК ТВ: Александр Гаврилин (3 серии)]
Русские субтитры: нет
Описание: Индийский субконтинент поражает своим многообразием видов животных, которые живут бок о бок с более чем миллиардом человек. От засушливых пустынь на западе страны до величественных Гималаев на севере и от муссонных склонов Западных Гат до священной реки Ганг – всюду животные борются за выживание, заключив с человеком негласный союз. На раскаленных песках пустыни и в непроходимых дебрях джунглей, на заснеженных горных вершинах и даже на улицах перенаселенных городов обитают животные, ставшие символами Индии.
Источник записи: HDTV-запись с телеканала Animal Planet HD от san007
Тип релиза: HDTV 1080i
Контейнер: MKV
Видео: AVC H.264, 1920x1080i (16:9), 50i fps, ~8460 kbps, ~0.16,4 bits/pixel
Аудио 1: Russian, AC3, 48KHz, 5.1 (6 channels), 384 kbps
Аудио 2: English, AC3, 48KHz, 5.1 (6 channels), 384 kbps
Раздача в HDTVRip 720p
Другие раздачи с Animal Planet HD
Планета мутантов - 1080i, 720p
В дебрях Африки - 1080i, 720p
В дебрях Латинской Америки - 1080i, 720p
Неизведанный Индокитай - 1080i, 720p
Неизведанные острова - 1080i, 720p
Природа Ближнего Востока - 1080i, 720p
Древо жизни - 1080i, 720p
Смертельные острова - 1080i, 720p
Другой Китай с Найджелом Марвеном - 1080i, 720p
Гангстеры дикой природы - 1080i, 720p
Загадочные животные острова Джао - 1080i, 720p
Список эпизодов
E01 - Thar Desert - Sacred Sands / Пустыня Тар - Священные пески
E02 - Ganges - River of Life / Ганг - Река жизни
E03 - The Himalayas - Surviving the Summits / Гималаи - Испытания вершинами

E04 - Western Ghats - Monsoon Mountains / Западные Гаты - Мусонные горы *
E05 - Indian's Lost World / Затерянный мир Индии *

* Канал Animal Planet HD по неизвестной причине никогда не показывал 4-ю и 5-ю серию, хотя по другим каналам (Зоо Тв, Телепутешествия) они транслировались, но правда в SD-разрешении. Поэтому этих серий нет в данной раздаче. С выходом диска Blu-ray возможно удастся добавить две последние серии в качестве BDRip 1080p.
MediaInfo
General
Format : Matroska
Format version : Version 4 / Version 2
File size : 2.89 GiB
Duration : 43mn 58s
Overall bit rate mode : Variable
Overall bit rate : 9 421 Kbps
Writing application : mkvmerge v7.7.0 ('Six Voices') 64bit
Writing library : libebml v1.3.1 + libmatroska v1.4.2
Video
ID : 1
Format : AVC
Format/Info : Advanced Video Codec
Format profile : [email protected]
Format settings, CABAC : Yes
Format settings, ReFrames : 4 frames
Codec ID : V_MPEG4/ISO/AVC
Duration : 43mn 58s
Bit rate mode : Variable
Bit rate : 8 466 Kbps
Maximum bit rate : 40.0 Mbps
Width : 1 920 pixels
Height : 1 080 pixels
Display aspect ratio : 16:9
Frame rate mode : Constant
Frame rate : 25.000 fps
Color space : YUV
Chroma subsampling : 4:2:0
Bit depth : 8 bits
Scan type : MBAFF
Scan order : Top Field First
Bits/(Pixel*Frame) : 0.163
Stream size : 2.60 GiB (90%)
Default : Yes
Forced : No
Color range : Limited
Color primaries : BT.709
Transfer characteristics : BT.709
Matrix coefficients : BT.709
Audio #1
ID : 2
Format : AC-3
Format/Info : Audio Coding 3
Mode extension : CM (complete main)
Format settings, Endianness : Big
Codec ID : A_AC3
Duration : 43mn 58s
Bit rate mode : Constant
Bit rate : 384 Kbps
Channel(s) : 6 channels
Channel positions : Front: L C R, Side: L R, LFE
Sampling rate : 48.0 KHz
Compression mode : Lossy
Stream size : 121 MiB (4%)
Title : Russian
Language : Russian
Default : Yes
Forced : No
Audio #2
ID : 3
Format : AC-3
Format/Info : Audio Coding 3
Mode extension : CM (complete main)
Format settings, Endianness : Big
Codec ID : A_AC3
Duration : 43mn 58s
Bit rate mode : Constant
Bit rate : 384 Kbps
Channel(s) : 6 channels
Channel positions : Front: L C R, Side: L R, LFE
Sampling rate : 48.0 KHz
Compression mode : Lossy
Stream size : 121 MiB (4%)
Title : English
Language : English
Default : No
Forced : No
Download
Сайт не распространяет и не хранит электронные версии произведений, а лишь предоставляет доступ к создаваемому пользователями каталогу ссылок на торрент-файлы, которые содержат только списки хеш-сумм
Как скачивать? (для скачивания .torrent файлов необходима регистрация)
[Профиль]  [ЛС] 

MrRyanCooper

Стаж: 9 лет 3 месяца

Сообщений: 540

MrRyanCooper · 06-Июн-19 10:16 (спустя 2 года 4 месяца)

блин, жаль нету всех
[Профиль]  [ЛС] 
 
Ответить
Loading...
Error