Большой брат / Мистер Шесть / Mr. Six / Lao pao er (Ху Гуань / Hu Guan) [2015, Китай, криминальная драма, HDTVRip] VO (Ворон) + Sub Rus + Original Zho

Страницы:  1
Ответить
Автор
Сообщение

andreylitv

Top Seed 02* 80r

Стаж: 12 лет 5 месяцев

Сообщений: 487

andreylitv · 05-Янв-19 16:48 (7 месяцев назад, ред. 05-Янв-19 16:50)

Большой брат / Мистер Шесть / Mr. Six / Lao pao er
Страна: Китай
Жанр: криминальная драма
Год выпуска: 2015
Продолжительность: 02:16:40
Перевод: Одноголосый закадровый Ворон
Субтитры: русские (форсированные + полные ФСГ 'WATT')
Оригинальная аудиодорожка: китайский
Режиссер: Ху Гуань / Hu Guan
В ролях: Ju-Gang Bai, У Ифань (Kris Wu), Фэн Сяоган, Шан Цзянь, И Фэн Ли, Лян Цзин, Хуа Лю, Nuo Lu, Нин Хао, Yuxian Shang, Цзэжу Тао
Описание: Лю Е — 50-летний вор в законе, который когда-то царствовал на улицах Пекина. В преступных кругах его называли Лао Пао Эр, что означает «старая пушка». Однажды его непослушный сын ввязывается в потасовку с уличной бандой гонщиков. Лю Е вступается за сына, пытаясь усмирить молодёжь своим авторитетом. Однако оказалось, что молодые бандиты совершенно не знают, кто такой Лао Пао Эр, и у них есть свой лидер, Сяо Е Эр.
P. S. История противостояния старого Китая во главе с криминальными авторитетами против золотой молодёжи и золотого века номенклатуры. Фильм must_see для всех кто интересуется кинематографом континентального Китая.
Доп. информация: Рип с этой раздачи. Как и во всех остальных раздачах присутствует не отключаемый китайско-английский хардсаб.
Сэмпл: http://sendfile.su/1466084
Качество видео: HDTVRip
Формат видео: AVI
Видео: Xvid, 720x272, 24fps, ~1120kbps, 0.238 b/pf
Аудио: AC3, 48Khz, 192Kbps, 2ch, Russian
Аудио 2: AC3, 48Khz, 192Kbps, 2ch, Chinese
Формат субтитров: softsub (SSA/ASS)
Доп. информация о субтитрах: (форсированные + полные ФСГ 'WATT')
MediaInfo
Format                         : AVI
Format/Info : Audio Video Interleave
File size : 1.45 GiB
Duration : 2 h 16 min
Overall bit rate : 1 515 kb/s
Video
ID : 0
Format : MPEG-4 Visual
Format profile : Advanced [email protected]
Format settings : BVOP2
Format settings, BVOP : 2
Format settings, QPel : No
Format settings, GMC : No warppoints
Format settings, Matrix : Default (H.263)
Codec ID : XVID
Codec ID/Hint : XviD
Duration : 2 h 16 min
Bit rate : 1 121 kb/s
Width : 720 pixels
Height : 272 pixels
Display aspect ratio : 2.647
Frame rate : 24.000 FPS
Color space : YUV
Chroma subsampling : 4:2:0
Bit depth : 8 bits
Scan type : Progressive
Compression mode : Lossy
Bits/(Pixel*Frame) : 0.238
Stream size : 1.07 GiB (74%)
Writing library : XviD 67
Audio #1
ID : 1
Format : AC-3
Format/Info : Audio Coding 3
Commercial name : Dolby Digital
Codec ID : 2000
Duration : 2 h 16 min
Bit rate mode : Constant
Bit rate : 192 kb/s
Channel(s) : 2 channels
Channel layout : L R
Sampling rate : 48.0 kHz
Frame rate : 31.250 FPS (1536 SPF)
Bit depth : 16 bits
Compression mode : Lossy
Stream size : 188 MiB (13%)
Alignment : Aligned on interleaves
Interleave, duration : 64 ms (1.54 video frames)
Interleave, preload duration : 192 ms
Title : Большой брат.2015.L1.1080p.HDTV.x264 - [0] Russian_new
Service kind : Complete Main
Audio #2
ID : 2
Format : AC-3
Format/Info : Audio Coding 3
Commercial name : Dolby Digital
Codec ID : 2000
Duration : 2 h 16 min
Bit rate mode : Constant
Bit rate : 192 kb/s
Channel(s) : 2 channels
Channel layout : L R
Sampling rate : 48.0 kHz
Frame rate : 31.250 FPS (1536 SPF)
Bit depth : 16 bits
Compression mode : Lossy
Stream size : 188 MiB (13%)
Alignment : Aligned on interleaves
Interleave, duration : 64 ms (1.54 video frames)
Interleave, preload duration : 192 ms
Title : Большой брат.2015.L1.1080p.HDTV.x264 - [1] Chinese
Service kind : Complete Main
Скриншот c названием фильма
Скриншоты
Download
Сайт не распространяет и не хранит электронные версии произведений, а лишь предоставляет доступ к создаваемому пользователями каталогу ссылок на торрент-файлы, которые содержат только списки хеш-сумм
Как скачивать? (для скачивания .torrent файлов необходима регистрация)
[Профиль]  [ЛС] 

markovasv

Стаж: 6 лет 4 месяца

Сообщений: 128

markovasv · 29-Мар-19 00:36 (спустя 2 месяца 23 дня)

Так долго и утомительно объясняли про старичка что он таки крутой, что до какого-то его противостояния досмотреть терпежа не хватило.
Оно конечно "маст си", но у меня почему-то само получилось "маст гоу аут". Надеюсь остальное си кто-нибудь другой домучает. Кто-то ведь маст...
[Профиль]  [ЛС] 

Slavonic

Стаж: 9 лет 7 месяцев

Сообщений: 180


Slavonic · 18-Июл-19 22:48 (спустя 3 месяца 20 дней)

Спасибо за компактный размер
[Профиль]  [ЛС] 
 
Ответить
Loading...
Error