Emmylou Harris and Rodney Crowell • Austin City Limits 2013 [2015, Country, HDTV 1080i]

Страницы:  1
Ответить
Автор
Сообщение

meloman67

Moderator

Стаж: 10 лет 4 месяца

Сообщений: 6304

meloman67 · 26-Июл-15 17:26 (4 года назад)


Emmylou Harris and Rodney Crowell


Жанр: Country
Продолжительность: 00:54:11
Год выпуска: 2013
Ретрансляция: July 12, 2015
Качество: HDTV 1080i
Контейнер: TS
Видео кодек: MPEG2
Аудио кодек: AC3
Видео: MPEG2 Video 1920x1080 29.97fps 10.9 Mbps
Аудио: Dolby AC3 48000Hz 6ch 384kbps
Треклист
Emmylou Harris & Rodney Crowell
Steve Fishell - steel guitar, dobro
Byron House - bass, vocals
Jedd Hughes - guitar, vocals
Jerry Roe - drums
Chris Tuttle - keyboards
with special guest
Shawn Colvin
Wheels
Pancho and Lefty
Luxury Liner
Red Dirt Girl
The Rock of My Soul
Invitation to the Blues
Back When We Were Beautiful
Chase the Feeling
Dreaming My Dreams
Leaving Louisiana in the Broad Daylight
Old Yellow Moon
Stars on the Water
Interview
Отчёт MediaInfo / BDInfo
General
ID : 1 (0x1)
Complete name : F:\Emmylou Harris and Rodney Crowell - Austin City Limits 2013.ts
Format : MPEG-TS
File size : 4.51 GiB
Duration : 54mn 11s
Overall bit rate mode : Variable
Overall bit rate : 11.9 Mbps
Law rating : TV-PG
Video
ID : 49 (0x31)
Menu ID : 3 (0x3)
Format : MPEG Video
Format version : Version 2
Format profile : [email protected]
Format settings, BVOP : Yes
Format settings, Matrix : Custom
Format settings, GOP : M=3, N=30
Format settings, picture struc : Frame
Codec ID : 2
Duration : 54mn 10s
Bit rate mode : Variable
Bit rate : 10.9 Mbps
Maximum bit rate : 90.0 Mbps
Width : 1 920 pixels
Height : 1 080 pixels
Display aspect ratio : 16:9
Frame rate : 29.970 fps
Color space : YUV
Chroma subsampling : 4:2:0
Bit depth : 8 bits
Scan type : Interlaced
Scan order : Top Field First
Compression mode : Lossy
Bits/(Pixel*Frame) : 0.176
Time code of first frame : 00:00:00;00
Time code source : Group of pictures header
GOP, Open/Closed : Open
GOP, Open/Closed of first fram : Closed
Stream size : 4.14 GiB (92%)
Audio
ID : 52 (0x34)
Menu ID : 3 (0x3)
Format : AC-3
Format/Info : Audio Coding 3
Mode extension : CM (complete main)
Format settings, Endianness : Big
Codec ID : 129
Duration : 54mn 10s
Bit rate mode : Constant
Bit rate : 384 Kbps
Channel(s) : 6 channels
Channel positions : Front: L C R, Side: L R, LFE
Sampling rate : 48.0 KHz
Compression mode : Lossy
Delay relative to video : 21ms
Stream size : 149 MiB (3%)
Language : English
Download
Сайт не распространяет и не хранит электронные версии произведений, а лишь предоставляет доступ к создаваемому пользователями каталогу ссылок на торрент-файлы, которые содержат только списки хеш-сумм
Как скачивать? (для скачивания .torrent файлов необходима регистрация)
[Профиль]  [ЛС] 
 
Ответить
Loading...
Error