Молчание / Tystnaden / The Silence (Ингмар Бергман / Ingmar Bergman) [1963, Швеция, драма, BDRip 1080p] [Criterion Collection] MVO + Original Swe + Dub Eng + Sub (Rus, Eng)

Страницы:  1
Ответить
Автор
Сообщение

niklc

Top Bonus 04* 3TB

Стаж: 10 лет 3 месяца

Сообщений: 413

niklc · 21-Дек-18 16:41 (8 месяцев назад, ред. 29-Дек-18 21:25)

Молчание / Tystnaden / The Silence
Год выпуска: 1963
Страна: Швеция
Жанр: Драма
Продолжительность: 01:35:57
Перевод: Профессиональный (многоголосый, закадровый)
Субтитры: Русские, английские
Оригинальная аудиодорожка: Шведская
Альтернативная аудиодорожка: Английская
Режиссер: Ингмар Бергман / Ingmar Bergman
В ролях: Ингрид Тулин, Гуннила Линдблюм, Биргер Мальмстен, Хокан Янберг, Йорген Линдстром и др.
Описание: Две сестры, ощущающие в своих душах одиночество, пытаются скрасить свою жизнь сексуальными переживаниями. И все это происходит в молчании. Ведь оно «иногда бывает выразительнее всяких речей». А это как раз тот самый случай!


Тип релиза: BDRip 1080p [The.Silence.1963.1080p.BluRay.x264-DEPTH]
Контейнер: MKV
Видео: AVC (x264), 1488x1080, 23.976 fps, 1.38:1, 12214 kb/s
Аудио 1: Русский, AC3, 48 kHz, 2 ch, 192 kb/s, 16 bits | МВО
Аудио 2: Шведский, FLAС, 48 kHz, 1 ch, 630 kb/s, 24 bits | Оригинал
Аудио 3: Английский, AC3, 48 kHz, 1 ch, 192 kb/s, 16 bits | Дубляж
Формат субтитров: Softsub (SRT)
Скриншоты

MediaInfo
General
Unique ID : 238247110556317621373917255831198127001 (0xB33CB974CBC3B7530064B4C73E8C5399)
Complete name : E:\The.Silence.1963.1080p.BluRay.x264-DEPTH\The.Silence.1963.1080p.BluRay.x264.mkv
Format : Matroska
Format version : Version 4
File size : 8.87 GiB
Duration : 1 h 35 min
Overall bit rate mode : Variable
Overall bit rate : 13.2 Mb/s
Encoded date : UTC 2018-12-21 13:05:17
Writing application : mkvmerge v29.0.0 ('Like It Or Not') 64-bit
Writing library : libebml v1.3.6 + libmatroska v1.4.9
Video
ID : 1
Format : AVC
Format/Info : Advanced Video Codec
Format profile : [email protected]
Format settings : CABAC / 5 Ref Frames
Format settings, CABAC : Yes
Format settings, ReFrames : 5 frames
Codec ID : V_MPEG4/ISO/AVC
Duration : 1 h 35 min
Bit rate : 12.2 Mb/s
Width : 1 488 pixels
Height : 1 080 pixels
Display aspect ratio : 1.378
Frame rate mode : Constant
Frame rate : 23.976 (24000/1001) FPS
Color space : YUV
Chroma subsampling : 4:2:0
Bit depth : 8 bits
Scan type : Progressive
Bits/(Pixel*Frame) : 0.317
Stream size : 8.19 GiB (92%)
Writing library : x264 core 157 r2935 545de2f
Encoding settings : cabac=1 / ref=5 / deblock=1:-3:-3 / analyse=0x3:0x133 / me=umh / subme=10 / psy=1 / psy_rd=1.00:0.15 / mixed_ref=1 / me_range=32 / chroma_me=1 / trellis=2 / 8x8dct=1 / cqm=0 / deadzone=21,11 / fast_pskip=0 / chroma_qp_offset=-3 / threads=30 / lookahead_threads=5 / sliced_threads=0 / nr=0 / decimate=1 / interlaced=0 / bluray_compat=0 / constrained_intra=0 / bframes=8 / b_pyramid=2 / b_adapt=2 / b_bias=0 / direct=3 / weightb=1 / open_gop=0 / weightp=2 / keyint=240 / keyint_min=24 / scenecut=40 / intra_refresh=0 / rc_lookahead=60 / rc=2pass / mbtree=1 / bitrate=12214 / ratetol=1.0 / qcomp=0.60 / qpmin=0 / qpmax=69 / qpstep=4 / cplxblur=20.0 / qblur=0.5 / ip_ratio=1.40 / aq=3:0.90
Default : Yes
Forced : No
Audio #1
ID : 2
Format : AC-3
Format/Info : Audio Coding 3
Commercial name : Dolby Digital
Codec ID : A_AC3
Duration : 1 h 35 min
Bit rate mode : Constant
Bit rate : 192 kb/s
Channel(s) : 2 channels
Channel layout : L R
Sampling rate : 48.0 kHz
Frame rate : 31.250 FPS (1536 SPF)
Bit depth : 16 bits
Compression mode : Lossy
Stream size : 132 MiB (1%)
Title : MVO
Language : Russian
Service kind : Complete Main
Default : Yes
Forced : No
Audio #2
ID : 3
Format : FLAC
Format/Info : Free Lossless Audio Codec
Codec ID : A_FLAC
Duration : 1 h 35 min
Bit rate mode : Variable
Bit rate : 630 kb/s
Channel(s) : 1 channel
Channel layout : C
Sampling rate : 48.0 kHz
Frame rate : 11.719 FPS (4096 SPF)
Bit depth : 24 bits
Compression mode : Lossless
Stream size : 433 MiB (5%)
Writing library : libFLAC 1.2.1 (UTC 2007-09-17)
Language : Swedish
Default : No
Forced : No
Audio #3
ID : 4
Format : AC-3
Format/Info : Audio Coding 3
Commercial name : Dolby Digital
Codec ID : A_AC3
Duration : 1 h 35 min
Bit rate mode : Constant
Bit rate : 192 kb/s
Channel(s) : 1 channel
Channel layout : C
Sampling rate : 48.0 kHz
Frame rate : 31.250 FPS (1536 SPF)
Bit depth : 16 bits
Compression mode : Lossy
Stream size : 132 MiB (1%)
Language : English
Service kind : Complete Main
Default : No
Forced : No
Text #1
ID : 5
Format : UTF-8
Codec ID : S_TEXT/UTF8
Codec ID/Info : UTF-8 Plain Text
Duration : 1 h 34 min
Bit rate : 21 b/s
Count of elements : 362
Stream size : 14.8 KiB (0%)
Language : Russian
Default : No
Forced : No
Text #2
ID : 6
Format : UTF-8
Codec ID : S_TEXT/UTF8
Codec ID/Info : UTF-8 Plain Text
Duration : 1 h 34 min
Bit rate : 12 b/s
Count of elements : 327
Stream size : 8.50 KiB (0%)
Language : English
Default : No
Forced : No
Menu
00:00:00.000 : en:00:00:00.000
00:01:28.964 : en:00:01:28.964
00:08:08.905 : en:00:08:08.905
00:13:18.756 : en:00:13:18.756
00:21:16.400 : en:00:21:16.400
00:25:59.141 : en:00:25:59.141
00:29:48.787 : en:00:29:48.787
00:34:02.874 : en:00:34:02.874
00:35:22.829 : en:00:35:22.829
00:38:06.743 : en:00:38:06.743
00:42:09.026 : en:00:42:09.026
00:46:22.863 : en:00:46:22.863
00:50:19.391 : en:00:50:19.391
00:55:10.098 : en:00:55:10.098
00:59:47.626 : en:00:59:47.626
01:02:26.117 : en:01:02:26.117
01:11:37.919 : en:01:11:37.919
01:21:24.505 : en:01:21:24.505
01:23:09.026 : en:01:23:09.026
01:31:32.445 : en:01:31:32.445
01:34:09.269 : en:01:34:09.269
Download
Сайт не распространяет и не хранит электронные версии произведений, а лишь предоставляет доступ к создаваемому пользователями каталогу ссылок на торрент-файлы, которые содержат только списки хеш-сумм
Как скачивать? (для скачивания .torrent файлов необходима регистрация)
[Профиль]  [ЛС] 

таурус

Стаж: 10 лет 5 месяцев

Сообщений: 1158

таурус · 22-Дек-18 10:20 (спустя 17 часов)

Большое спасибо! А диск или ремукс стоит ждать?
[Профиль]  [ЛС] 

Ёжиков

Фильмографы

Стаж: 11 лет 1 месяц

Сообщений: 816

Ёжиков · 22-Дек-18 21:32 (спустя 11 часов)

Спасибо, но всё-таки ждём ремукс
[Профиль]  [ЛС] 

porvaliparus

Стаж: 2 года 4 месяца

Сообщений: 2339

porvaliparus · 26-Дек-18 01:14 (спустя 3 дня)

Русские субтитры идут раньше на 1,1 секунды.
# сомнительно

[Профиль]  [ЛС] 

Ёжиков

Фильмографы

Стаж: 11 лет 1 месяц

Сообщений: 816

Ёжиков · 27-Дек-18 13:19 (спустя 1 день 12 часов)

interdude
Как обычно, ждём, как манны небесной
[Профиль]  [ЛС] 

Kochegar1970

Стаж: 10 лет 1 месяц

Сообщений: 258

Kochegar1970 · 29-Дек-18 12:17 (спустя 1 день 22 часа)

Друзья! Вот не понимаю. Зачем ждать ремукс??? У меня экран 120" -- качества данного релиза -- "за глаза!" Не понимаю... не сочтите за флуд. (И да, вспоминаются походы на Горбушку в 90-е. VHS-копии. Телевизор в углу. И смотрели ведь...)
[Профиль]  [ЛС] 

таурус

Стаж: 10 лет 5 месяцев

Сообщений: 1158

таурус · 29-Дек-18 18:20 (спустя 6 часов)

Kochegar1970 писал(а):
76578732Друзья! Вот не понимаю. Зачем ждать ремукс??? У меня экран 120" -- качества данного релиза -- "за глаза!" Не понимаю... не сочтите за флуд. (И да, вспоминаются походы на Горбушку в 90-е. VHS-копии. Телевизор в углу. И смотрели ведь...)
Это нормальный перфекционизм - хочется знать, что смотришь (и хранишь в коллекции) фильм в максимальном качестве. Понятно, что на глаз и слух разница между оригиналом (ремуксом) и хорошим рипом 1080р, как правило, неуловима. Но...
[Профиль]  [ЛС] 

folterr

Стаж: 7 лет 9 месяцев

Сообщений: 234


folterr · 21-Июл-19 20:50 (спустя 6 месяцев)

Гуннила Линдблюм .... (((((
[Профиль]  [ЛС] 
 
Ответить
Loading...
Error