Пэйтон Плейс / Peyton Place (Марк Робсон / Mark Robson) [1957, США, драма, BDRemux 1080p] [USA Transfer] MVO (FOX International) + Sub (Rus, Eng) + Original (Eng)

Страницы:  1
Ответить
Автор
Сообщение

sovsem-neduhoven

Top Seed 07* 2560r

Стаж: 10 лет 5 месяцев

Сообщений: 6731

sovsem-neduhoven · 13-Июл-19 21:26 (1 месяц 9 дней назад, ред. 13-Июл-19 21:30)

Пэйтон Плейс / Peyton Place
Страна: США
Студия: Jerry Wald Productions
Жанр: драма
Год выпуска: 1957
Продолжительность: 02:37:00
Перевод: Профессиональный (многоголосый закадровый) - FOX International
Субтитры: русские (на надписи), русские (полные), английские (полные с блю-рэя), английские (полные с ДВД), английские (для слабослышащих с блю-рэя), английские (цветные для слабослышащих с блю-рэя), английские (для слабослышащих с ДВД), английские (цветные для слабослышащих с ДВД)
Оригинальная аудиодорожка: английский
Режиссер: Марк Робсон / Mark Robson
В ролях: Лана Тернер, Ли Филипс, Ллойд Нолан, Артур Кеннеди, Расс Тэмблин, Терри Мур, Хоуп Лэнг, Дайан Варси, Дэвид Нельсон, Бэрри Коу, Бетти Филд, Милдред Даннок, Леон Эймс, Лорн Грин, Роберт Х. Харрис, Тами Коннер, Статс Котсворф, Пег Хиллиас, Эрин О’Брайен-Мур, Роберт Адлер, Джим Брандт, Гарри Картер, Эдит Клэр, Джон Дусетт, Том Гринуэй, Эдвин Джером, Кип Кинг, Майк Лэлли, Билл Лундмарк, Вилбур Мак, Хэнк Манн, Томас Мартин, Рэй Монтгомери, Скотти Морроу, Одри Прейсендорф, Алан Рид мл., Штеффи Сидни, Альфред Тонкель, Артур Тови, Том Уилсон
Описание: По роману Грейс Металиус. Несмотря на то, что Констанс, как и другие родители, населяющие этот образцово-порядочный городок, стремятся растить своих детей-подростков по всем правилам хорошего тона и воспитания, скандалы только набирают оборот вокруг них: пьяный сторож избивает свою падчерицу, что влечет за собой убийство, суд и осознание того, что все в этом городе далеко не так хорошо, как кажется.
Доп. информация: В найденный в сети ремукс, содержащий английский оригинал и английские субтитры, добавлена многоголоска из релиза - https://rutracker.org/forum/viewtopic.php?t=5752870.
Сэмпл: https://cloud.mail.ru/public/3kTW/46yKXQgzC
Тип релиза: BDRemux 1080p
Контейнер: MKV
Видео: ~ 25995 Кбит/сек, AVC 1920*1080 (16:9), 23,976 кадра/сек, CABAC
Аудио: Русский, 448 Кбит/сек, 48,0 КГц, 16 бит, 4 канала, AC-3
Аудио 2: Английский, DTS MA: 5.1 / 48,0 КГц / 3413 Кбит/сек / 24 бит / (DTS Core: 5.1 / 48,0 КГц / 1509 Кбит/сек / 24 бит)
Аудио 3: Английский, 224 Кбит/сек, 48,0 КГц, 16 бит, 2 канала, AC-3 - комментарии создателей
Аудио 4: Английский, 224 Кбит/сек, 48,0 КГц, 16 бит, 2 канала, AC-3- комментарии актёров
Формат субтитров: softsub (SRT)
MediaInfo
Общее
Уникальный идентификатор : 155473524779182839909627972391824139131 (0x74F71C97EC5EC9CD4F75AAE199E2237B)
Полное имя : R:\MONAR\Художественные фильмы\Зарубежное кино\Пэйтон Плейс (1957) BDRemux 1080p.mkv
Формат : Matroska
Версия формата : Version 4
Размер файла : 33,1 Гбайт
Продолжительность : 2 ч. 37 м.
Режим общего битрейта : Переменный
Общий поток : 30,2 Мбит/сек
Название фильма : Peyton Place (1957)
Дата кодирования : UTC 2019-07-13 16:09:37
Программа кодирования : mkvmerge v35.0.0 ('All The Love In The World') 64-bit
Библиотека кодирования : libebml v1.3.9 + libmatroska v1.5.2
Обложка : Yes
Attachments : cover.jpg
Видео
Идентификатор : 1
Формат : AVC
Формат/Информация : Advanced Video Codec
Профиль формата : [email protected]
Настройки формата : CABAC / 4 Ref Frames
Параметр CABAC формата : Да
Параметр RefFrames формата : 4 кадра
Идентификатор кодека : V_MPEG4/ISO/AVC
Продолжительность : 2 ч. 37 м.
Вид битрейта : Переменный
Битрейт : 25,9 Мбит/сек
Максимальный битрейт : 35,0 Мбит/сек
Ширина : 1920 пикселей
Высота : 1080 пикселей
Соотношение сторон : 16:9
Режим частоты кадров : Постоянный
Частота кадров : 23,976 (24000/1001) кадра/сек
Цветовое пространство : YUV
Субдискретизация насыщенности : 4:2:0
Битовая глубина : 8 бит
Тип развёртки : Прогрессивная
Бит/(Пиксели*Кадры) : 0.521
Размер потока : 28,4 Гбайт (86%)
Язык : English
Default : Да
Forced : Нет
Аудио #1
Идентификатор : 2
Формат : AC-3
Формат/Информация : Audio Coding 3
Коммерческое название : Dolby Digital
Идентификатор кодека : A_AC3
Продолжительность : 2 ч. 37 м.
Вид битрейта : Постоянный
Битрейт : 448 Кбит/сек
Каналы : 4 канала
ChannelLayout : L R C Cb
Частота : 48,0 КГц
Частота кадров : 31,250 кадров/сек (1536 SPF)
Битовая глубина : 16 бит
Метод сжатия : С потерями
Размер потока : 503 Мбайт (1%)
Заголовок : MVO
Язык : Russian
ServiceKind/String : Complete Main
Default : Да
Forced : Нет
Аудио #2
Идентификатор : 3
Формат : DTS XLL
Формат/Информация : Digital Theater Systems
Коммерческое название : DTS-HD Master Audio
Идентификатор кодека : A_DTS
Продолжительность : 2 ч. 37 м.
Вид битрейта : Переменный
Битрейт : 3413 Кбит/сек
Каналы : 6 каналов
ChannelLayout : C L R Ls Rs LFE
Частота : 48,0 КГц
Частота кадров : 93,750 кадра/сек (512 SPF)
Битовая глубина : 24 бит
Метод сжатия : Без потерь
Размер потока : 3,74 Гбайт (11%)
Заголовок : original
Язык : English
Default : Нет
Forced : Нет
Аудио #3
Идентификатор : 4
Формат : AC-3
Формат/Информация : Audio Coding 3
Коммерческое название : Dolby Digital
Идентификатор кодека : A_AC3
Продолжительность : 2 ч. 37 м.
Вид битрейта : Постоянный
Битрейт : 224 Кбит/сек
Каналы : 2 канала
ChannelLayout : L R
Частота : 48,0 КГц
Частота кадров : 31,250 кадров/сек (1536 SPF)
Битовая глубина : 16 бит
Метод сжатия : С потерями
Размер потока : 252 Мбайт (1%)
Заголовок : comments v1
Язык : English
ServiceKind/String : Complete Main
Default : Нет
Forced : Нет
Аудио #4
Идентификатор : 5
Формат : AC-3
Формат/Информация : Audio Coding 3
Коммерческое название : Dolby Digital
Идентификатор кодека : A_AC3
Продолжительность : 2 ч. 37 м.
Вид битрейта : Постоянный
Битрейт : 224 Кбит/сек
Каналы : 2 канала
ChannelLayout : L R
Частота : 48,0 КГц
Частота кадров : 31,250 кадров/сек (1536 SPF)
Битовая глубина : 16 бит
Метод сжатия : С потерями
Размер потока : 252 Мбайт (1%)
Заголовок : comments v2
Язык : English
ServiceKind/String : Complete Main
Default : Нет
Forced : Нет
Текст #1
Идентификатор : 6
Формат : UTF-8
Идентификатор кодека : S_TEXT/UTF8
Идентификатор кодека/Информация : UTF-8 Plain Text
Продолжительность : 2 ч. 32 м.
Битрейт : 0 бит/сек
ElementCount : 9
Размер потока : 376 байт (0%)
Заголовок : custom
Язык : Russian
Default : Да
Forced : Нет
Текст #2
Идентификатор : 7
Формат : UTF-8
Идентификатор кодека : S_TEXT/UTF8
Идентификатор кодека/Информация : UTF-8 Plain Text
Продолжительность : 2 ч. 36 м.
Битрейт : 121 бит/сек
ElementCount : 2223
Размер потока : 139 Кбайт (0%)
Заголовок : full
Язык : Russian
Default : Нет
Forced : Нет
Текст #3
Идентификатор : 8
Формат : UTF-8
Идентификатор кодека : S_TEXT/UTF8
Идентификатор кодека/Информация : UTF-8 Plain Text
Продолжительность : 2 ч. 34 м.
Битрейт : 73 бит/сек
ElementCount : 2240
Размер потока : 83,5 Кбайт (0%)
Заголовок : full (blu-ray)
Язык : English
Default : Нет
Forced : Нет
Текст #4
Идентификатор : 9
Формат : UTF-8
Идентификатор кодека : S_TEXT/UTF8
Идентификатор кодека/Информация : UTF-8 Plain Text
Продолжительность : 2 ч. 34 м.
Битрейт : 68 бит/сек
ElementCount : 1891
Размер потока : 77,2 Кбайт (0%)
Заголовок : full (DVD)
Язык : English
Default : Нет
Forced : Нет
Текст #5
Идентификатор : 10
Формат : UTF-8
Идентификатор кодека : S_TEXT/UTF8
Идентификатор кодека/Информация : UTF-8 Plain Text
Продолжительность : 2 ч. 34 м.
Битрейт : 75 бит/сек
ElementCount : 2336
Размер потока : 85,8 Кбайт (0%)
Заголовок : SDH (blu-ray)
Язык : English
Default : Нет
Forced : Нет
Текст #6
Идентификатор : 11
Формат : UTF-8
Идентификатор кодека : S_TEXT/UTF8
Идентификатор кодека/Информация : UTF-8 Plain Text
Продолжительность : 2 ч. 34 м.
Битрейт : 80 бит/сек
ElementCount : 2336
Размер потока : 90,7 Кбайт (0%)
Заголовок : SDH colored (blu-ray)
Язык : English
Default : Нет
Forced : Нет
Текст #7
Идентификатор : 12
Формат : UTF-8
Идентификатор кодека : S_TEXT/UTF8
Идентификатор кодека/Информация : UTF-8 Plain Text
Продолжительность : 2 ч. 34 м.
Битрейт : 69 бит/сек
ElementCount : 1940
Размер потока : 78,9 Кбайт (0%)
Заголовок : SDH (DVD)
Язык : English
Default : Нет
Forced : Нет
Текст #8
Идентификатор : 13
Формат : UTF-8
Идентификатор кодека : S_TEXT/UTF8
Идентификатор кодека/Информация : UTF-8 Plain Text
Продолжительность : 2 ч. 34 м.
Битрейт : 73 бит/сек
ElementCount : 1940
Размер потока : 83,4 Кбайт (0%)
Заголовок : SDH colored (DVD)
Язык : English
Default : Нет
Forced : Нет
Меню
00:00:00.000 : en:Main Titles / Seasons
00:03:23.000 : en:Mr. Rossi
00:08:06.000 : en:Allison
00:11:35.000 : en:Miss Thornton
00:14:51.000 : en:New Principal
00:19:26.000 : en:Life Lessons
00:23:31.000 : en:Fast Girl
00:26:14.000 : en:Aspirations
00:28:52.000 : en:Birthday Party
00:33:22.000 : en:Who's That?
00:36:11.000 : en:Standards
00:39:31.000 : en:Sunday Services
00:43:16.000 : en:Secret Place
00:49:44.000 : en:Using Time
00:53:29.000 : en:School Dance
01:02:34.000 : en:Rebuffed
01:04:23.000 : en:Rape
01:07:49.000 : en:Independence
01:12:25.000 : en:Family Secret
01:16:35.000 : en:Darker Secret
01:21:49.000 : en:Town Picnic
01:26:30.000 : en:Having Fun
01:29:50.000 : en:Gone Swimming
01:34:04.000 : en:Mike's Offer
01:39:23.000 : en:Accusations
01:43:16.000 : en:Adult Decisions
01:46:58.000 : en:Winter of Despair
01:52:29.000 : en:Honor Roll
01:56:12.000 : en:Confession
02:00:05.000 : en:Lucas
02:06:07.000 : en:Old Friends
02:09:18.000 : en:Hard Truths
02:15:12.000 : en:The Trial
02:26:41.000 : en:Moral Obligation
02:31:11.000 : en:Peyton Place
02:35:07.000 : en:Season of Love
Скриншоты
Download
Сайт не распространяет и не хранит электронные версии произведений, а лишь предоставляет доступ к создаваемому пользователями каталогу ссылок на торрент-файлы, которые содержат только списки хеш-сумм
Как скачивать? (для скачивания .torrent файлов необходима регистрация)
[Профиль]  [ЛС] 

bot · 16-Июл-19 06:45 (спустя 2 дня 9 часов)

Тема была перенесена из форума HD Video в форум Классика мирового кинематографа (HD Video)
porvaliparus
 
 
Ответить
Loading...
Error